Battlefield 3 v1.0.0.0クラックファイルをダウンロード

2018/03/11

2018/04/13

2019/06/29

互換性: Android KitKat 4.4, Lollipop 5.0, Marshmallow 6.0, Nougat 7.0, Oreo 8.0, Android P 9.0 ダウンロード スコア: 2.42994 2.42994 から 314 投票 カプコンネットキャッチャー カプとれ APK をダウンロード ダウンロード カプコンネット Firefox 8.0.1 EN RO RU IT Power ISO 4.8 sr-lanoire bifrost 1.2.1d Zip silent hunter 5 crack 1.2 skidrow exe l.a noire crack only download Mar 26, 2011 3.. Silent Hunter 5 Crack 1.2 Skidrow Exe 40. DOWNLOAD 2019年1月9日 8名無しさん@お腹いっぱい。2019/01/13(日) 11:42:35.57ID:anTpMyt/0 3. 「Get List」を押す 4. 一覧から目当てのパッチを選択する(ID順に並び替えをおすすめ) 5. 「Download」を押す 6. クラックしたやつで作ったファイルを納品したりwebに上げたとき、誰かにばれることはないのか? 前のAGenP V1.5.5.3とどう違うの? 126.133.0.0 - 126.133.255.255 E3%81%84%E3%81%A6%E3%82%82CS6%E3%81%AF%E4%BD%BF%E7%94%A8%E7%A6%81%E6%AD%A2.html. 日本語データが元々入っていて、それを表示させるには、 A-Train8DL.ini の LANGUAGE=1 を 0 にする。 マルチランゲージによる日本語対応(字幕と音声); GOG版、Epic版は、実行ファイルにコマンドラインで-locale=jpを指定すると日本語になる。 数年前にストアページは消えたが、以下のURLからダウンロード可能 (要Steamインストール) 現状では、共通パッチv1.0.0.4 のみ公式公認で海外版でも日本語を選択可能になる。 2. ストリーミング支援ソフトで入手したファイル(形式は問わない) 3. FLV全般(FLV⇔各種メディアの変換、質問内容にFLVとあるだけで対象になります)*2 4. 30 -g 300 -sc_threshold 40 -bf 0 -refs 3 -flags +loop -flags2 +mbtree+mixed_refs -an "<%TemporaryFile%>_v.mp4"" MP4 Base Media v1 Stream #0.0: Video: xvid (hq), 640x480, 29.97 fps, q=1-31, 1536 kb/s Stream #0.1: Audio: aac, 48000 Hz, stereo, 96 kb/s Stream 新しいFFmpeg rev.27663をダウンロードしたけどエラー:01を出ました。

0. 2. 4 γ/γy τ. /τ y. 修正2曲面モデル. 混合硬化則. 薄肉補剛箱形断面を有する鋼部材の簡易耐. 震照査法. 垣内一輝(日本電技株式会社) 手法の提案を試みている. 0. 1. 2. 3. 4. 0. 1. 2. 3. 4 δ u,beam/δ y δu,sh ell. /δy. +20%. -20% -10%. +10%. 0. 1. 2. 0. 1. 2 Fig.3 Tree extension with a flat type of crack occurred from による BF ,SAD および KD をそれぞれ代表的に示す. 表3 焼結前と1500ºC で焼結したSrZr0.8In0.2O3-δ 膜の. 表面EDX 分析結果. Mn. Sr. Zr. In. La. 焼結前. 0.0. 49.5. 41.7. 8.7. 2016年10月13日 講演 3:歯科用 CAD/CAM システムによる歯冠修復の概要と臨床的要点. 演 者:風間龍之輔 講演名:NiTi 新時代―今までの常識を覆す形状記憶性 NiTi ファイル. HyFlexTM 3D プリンタで作製した 状根管模型ブロックによる手用ファイル操作法の評価. 【2503】 【材料および方法】0~100 µM の MV 含有 Brain Heart Infusion (BHI)培地中で S. mutans MT8141 株を培養し、経時的な 本法の特徴は、歯面の乾燥によりう蝕象牙質内に自然にクラックが発生する現象を利用するとこ. ろにある。 2019年11月7日 vi. 3 F. A会場 (メインホール). ・開会式 (7 日). ・研究発表 (7, 8 日・口演). ・シンポジウム (1, 2・ 7 日). ・表彰式 (7 日). ・特別講演 (1・ 7 日, 2・ 8 日) 歯内) 手用ステンレススチール製ファイルでの湾曲根管の拡大形成に関する比較 が 62±3 のデ. ンティンディスクを,ULVAC 社製アスピレーターMDA-006 を用いて歯髄腔から 0.01MPa で吸引した状態で,20mM 乳酸 0.0. 25.0. 14.3. 2.0. 0. 50〜59. 3. 82.4. 28.6. 31.8. 53.6±17.3. 3.4±0.3. 1.1±0.9. 60〜69. 10. 65.8. 34.7. 23.5. 55.1±32.4. 新着「DEATH STRANDING」 PC デジタルダウンロード版 / 初回限定生産版楽天で購入【2020年09月10日発売】 プロトタイプ 円□特価品情報78円Destiny【中古】[☆2] 100円Destiny 2【中古】[☆3] 100円880円□スマホ. 2020/06/16. コメント(0) バトルフィールド5ウィンドウズ版」秋葉原のPCショップで主催されたグラフィックボードの説明会に参加した時に聞いた話です。 GIGABYTE AORUS GP-ASM2NE6500GTTD NVMe Gen4 SSD 500GB楽天で購入□XboxOne「ナツキクロニクル v1.0.0」裏技画像は360  シェルスクリプトでGoogle Driveから巨大なファイルをダウンロードする My Env. 2019-12-02T20:18:32 ncaq@strawberry/pts/3(0) ~ % cat /etc/os-release NAME=Gentoo ID=gentoo PRETTY_NAME="Gentoo/Linux" 私の環境ではまだsbt v1ではない. Address State User Inode PID/Program name tcp 0 0 0.0.0.0:59999 0.0.0.0:* LISTEN root 11496 323/sshd tcp 0 0 0.0.0 てついRustでコードを書いてしまったのですが, fn bf(source: &[char], word: &[char]) -> Option { let mut counter = 0; 

モバイルデバイス用のdSploit apkをダウンロードしてください。これにより、ユーザーはネットワークトランザクションを分析、キャプチャ、および操作できます。 dSploitアプリは、Androidデバイス用にSimone Margaritelliが開発した侵入テストスイートです。 HD Audio v1.3.26.4をインストール。 GeForce Experience v9.3.16.0をインストール。 CUDA 5.5 または旧バージョンの CUDA ツールキットを使用して構築したアプリケーションのサポートも含まれます。 互換性: Android KitKat 4.4, Lollipop 5.0, Marshmallow 6.0, Nougat 7.0, Oreo 8.0, Android P 9.0 ダウンロード スコア: 2.42994 2.42994 から 314 投票 カプコンネットキャッチャー カプとれ APK をダウンロード ダウンロード カプコンネット Firefox 8.0.1 EN RO RU IT Power ISO 4.8 sr-lanoire bifrost 1.2.1d Zip silent hunter 5 crack 1.2 skidrow exe l.a noire crack only download Mar 26, 2011 3.. Silent Hunter 5 Crack 1.2 Skidrow Exe 40. DOWNLOAD 2019年1月9日 8名無しさん@お腹いっぱい。2019/01/13(日) 11:42:35.57ID:anTpMyt/0 3. 「Get List」を押す 4. 一覧から目当てのパッチを選択する(ID順に並び替えをおすすめ) 5. 「Download」を押す 6. クラックしたやつで作ったファイルを納品したりwebに上げたとき、誰かにばれることはないのか? 前のAGenP V1.5.5.3とどう違うの? 126.133.0.0 - 126.133.255.255 E3%81%84%E3%81%A6%E3%82%82CS6%E3%81%AF%E4%BD%BF%E7%94%A8%E7%A6%81%E6%AD%A2.html. 日本語データが元々入っていて、それを表示させるには、 A-Train8DL.ini の LANGUAGE=1 を 0 にする。 マルチランゲージによる日本語対応(字幕と音声); GOG版、Epic版は、実行ファイルにコマンドラインで-locale=jpを指定すると日本語になる。 数年前にストアページは消えたが、以下のURLからダウンロード可能 (要Steamインストール) 現状では、共通パッチv1.0.0.4 のみ公式公認で海外版でも日本語を選択可能になる。 2. ストリーミング支援ソフトで入手したファイル(形式は問わない) 3. FLV全般(FLV⇔各種メディアの変換、質問内容にFLVとあるだけで対象になります)*2 4. 30 -g 300 -sc_threshold 40 -bf 0 -refs 3 -flags +loop -flags2 +mbtree+mixed_refs -an "<%TemporaryFile%>_v.mp4"" MP4 Base Media v1 Stream #0.0: Video: xvid (hq), 640x480, 29.97 fps, q=1-31, 1536 kb/s Stream #0.1: Audio: aac, 48000 Hz, stereo, 96 kb/s Stream 新しいFFmpeg rev.27663をダウンロードしたけどエラー:01を出ました。

Firefox 8.0.1 EN RO RU IT Power ISO 4.8 sr-lanoire bifrost 1.2.1d Zip silent hunter 5 crack 1.2 skidrow exe l.a noire crack only download Mar 26, 2011 3.. Silent Hunter 5 Crack 1.2 Skidrow Exe 40. DOWNLOAD

2011/11/06 『バトルフィールド3』(Battlefield 3, 略称:BF3)は、日本で2011年11月2日(欧米では2011年10月25日)にエレクトロニック・アーツから発売された『バトルフィールドシリーズ』のFPSである。 このアップローダーは、uploader.jp の無料アップローダーレンタルサービスによって提供されています。 簡単な無料会員登録を行っていただくだけで、スマートフォン対応の便利なアップローダーを無料でレンタルできます。 費用は一切かかりませんので、この機会にぜひお試しください。 2020/05/12 2018/11/19 2018/01/30


モバイルデバイス用のdSploit apkをダウンロードしてください。これにより、ユーザーはネットワークトランザクションを分析、キャプチャ、および操作できます。 dSploitアプリは、Androidデバイス用にSimone Margaritelliが開発した侵入テストスイートです。

2011/02/13

(3)受注者は、測定(試験)等を工事の施工と並行して、管理の目的が達せられるよう速やかに実 了」とは、特に. 指示がない場合. は舗装(表層、. 上層路盤、下層. 路盤)を除いた. 埋戻完了時点と. する。 H=V2-V1. B2. B1. V1 直管(両面溶接). ルートギャップ(s). 0~3. ベベル角度(θ). Y、Y':30~35 ゚. X' :35~15 ゚. X :30~50 ゚. ルートフェイス(a). ≦2.4 写真ファイルの. 整理及び電子媒体への格納方法(各種仕様)は「電子化写真データの作成要領(案)」に. 基づくものとする。 ただし、乾燥収縮クラックは除く。

Leave a Reply